<?xml version="1.0" standalone="no"?>
<!DOCTYPE svg PUBLIC "-//W3C//DTD SVG 1.1//EN" "http://www.w3.org/Graphics/SVG/1.1/DTD/svg11.dtd" >
<svg xmlns="http://www.w3.org/2000/svg">
<metadata>
This is a custom SVG webfont generated by Font Squirrel.
Copyright   : Copyright c 2010 by Jos Buivenga All rights reserved
Designer    : Jos Buivenga
Foundry     : Jos Buivenga
Foundry URL : httpexljbriscom
</metadata>
<defs>
<font id="webfontW850hM1B" horiz-adv-x="1064" >
<font-face units-per-em="2048" ascent="1536" descent="-512" />
<missing-glyph horiz-adv-x="491" />
<glyph unicode=" "  horiz-adv-x="491" />
<glyph unicode="&#x09;" horiz-adv-x="491" />
<glyph unicode="&#xa0;" horiz-adv-x="491" />
<glyph unicode="!" horiz-adv-x="555" d="M205 401l-23 990h191l-27 -990h-141zM156 98.5q0 51.5 35.5 87t87 35.5t87 -35.5t35.5 -87t-35.5 -87.5t-87 -36t-87 36t-35.5 87.5z" />
<glyph unicode="&#x22;" horiz-adv-x="712" d="M451 883v483h151v-76l-47 -407h-104zM131 883v483h152v-76l-47 -407h-105z" />
<glyph unicode="#" horiz-adv-x="1325" d="M152 659l20 113h252l84 412h119l-84 -412h311l84 412h119l-84 -412h276l-20 -113h-281l-59 -290h282l-20 -113h-285l-88 -438h-121l91 438h-312l-88 -438h-121l90 438h-243l20 113h246l59 290h-247zM518 659l-59 -290h311l59 290h-311z" />
<glyph unicode="$" horiz-adv-x="946" d="M82 86l37 145l39 -26q25 -16 105.5 -46t164.5 -34l10 387q-72 27 -119 49.5t-102 61.5t-84 95t-29 128q0 121 87.5 204t263.5 95l6 178h90l-4 -176q174 -6 284 -62l-47 -137q-102 49 -241 60l-11 -367q150 -55 238 -135t88 -209t-91 -210t-253 -95l-4 -174h-90l4 170 q-96 2 -182 26.5t-123 46.5zM696 291q0 70 -43 111.5t-125 74.5l-10 -350q178 23 178 164zM266 856q0 -70 44 -110.5t132 -73.5l11 336q-187 -13 -187 -152z" />
<glyph unicode="%" horiz-adv-x="1497" d="M215 0l956 1376l86 -59l-917 -1317h-125zM389 731q-131 0 -220 89t-89 218t89 218.5t220 89.5t220 -89.5t89 -218.5t-89 -218t-220 -89zM389 838q82 0 138.5 60t56.5 140t-56.5 140.5t-140.5 60.5q-80 0 -136 -60.5t-56 -140.5t56 -140t138 -60zM805 283q0 129 89 218 t220 89t220 -89t89 -218t-89 -218.5t-220 -89.5t-220 89.5t-89 218.5zM920 282.5q0 -79.5 56 -140t138 -60.5t138.5 60.5t56.5 140t-56.5 140t-140.5 60.5q-80 0 -136 -60.5t-56 -140z" />
<glyph unicode="&#x26;" horiz-adv-x="1394" d="M88 319q0 127 79 219.5t220 184.5q-119 211 -119 352q0 121 84 218.5t248 97.5q141 0 221 -76t80 -199q0 -127 -81 -219t-230 -192q74 -111 145 -197q92 -113 170 -189q172 229 199 603h151q-12 -162 -74.5 -354.5t-174.5 -338.5q186 -160 335 -196l-65 -119 q-168 27 -379 201q-164 -139 -375 -140q-178 0 -306 90t-128 254zM532 115q143 0 263 90q-90 84 -193 211q-70 82 -149 198q-207 -143 -207 -282q0 -104 84.5 -160.5t201.5 -56.5zM442 1079q0 -109 84 -266q104 70 160.5 135.5t56.5 145.5q0 66 -38.5 111.5t-108.5 45.5 q-74 0 -114 -50t-40 -122z" />
<glyph unicode="'" horiz-adv-x="393" d="M131 883v483h152v-76l-47 -407h-105z" />
<glyph unicode="(" horiz-adv-x="585" d="M109 553q0 432 231 772q41 57 72 90l127 -37l-32 -39q-19 -25 -69.5 -108.5t-88.5 -173.5t-69.5 -227.5t-31.5 -276.5q0 -434 229 -786q39 -59 68 -93l-123 -43l-34 41q-22 27 -76 117t-95 189.5t-74.5 256t-33.5 318.5z" />
<glyph unicode=")" horiz-adv-x="585" d="M41 -326q12 14 31.5 40t71 113t91 182t71.5 243.5t32 300.5q0 399 -227 741l-64 84l127 37q12 -12 32.5 -36.5t73 -109.5t92.5 -177.5t72.5 -239.5t32.5 -299q0 -459 -237 -821q-43 -66 -76 -101z" />
<glyph unicode="*" horiz-adv-x="991" d="M465 1102l-51 307h164l-52 -307h-61zM606 1020l-31 53l242 199l82 -144zM385 1020l-293 108l82 144l242 -199zM575 909l31 54l293 -109l-82 -143zM174 711l-82 143l293 109l31 -54zM414 573l51 308h61l52 -308h-164z" />
<glyph unicode="+" d="M63 446v134h402v419h141v-419h395v-134h-395v-446h-141v446h-402z" />
<glyph unicode="," horiz-adv-x="471" d="M109 174l167 55q78 -92 78 -221q0 -205 -207 -362l-71 73q53 47 71.5 66.5t38 59.5t19.5 89q0 105 -96 240z" />
<glyph unicode="-" horiz-adv-x="692" d="M115 438v148h463v-148h-463z" />
<glyph unicode="." horiz-adv-x="487" d="M121 98.5q0 51.5 36 87t87 35.5t87 -35.5t36 -87t-36 -87.5t-87 -36t-87 36t-36 87.5z" />
<glyph unicode="/" horiz-adv-x="937" d="M47 -401l682 1767h141l-680 -1767h-143z" />
<glyph unicode="0" horiz-adv-x="1124" d="M102 467q0 213 123 366.5t346 153.5q217 0 334 -140t117 -339q0 -137 -46 -254t-156.5 -198t-266.5 -81q-209 0 -330 147.5t-121 344.5zM262 485q0 -150 81 -260t218 -110q147 0 224 109.5t77 264.5q0 145 -77.5 252t-221.5 107q-139 0 -220 -109t-81 -254z" />
<glyph unicode="1" horiz-adv-x="741" d="M104 0v137h215v699h-200v127h360v-826h201v-137h-576z" />
<glyph unicode="2" horiz-adv-x="909" d="M109 0l-17 104l53 39q33 25 116 97.5t147.5 141.5t117 156t52.5 154q0 70 -48.5 113t-123.5 43q-55 0 -116 -23.5t-93 -46.5l-31 -24l-70 104q16 14 47 35.5t119 57.5t170 36q135 0 224 -79t89 -195q0 -78 -35.5 -158t-106.5 -160t-128 -133t-143 -125h499v-137h-722z " />
<glyph unicode="3" horiz-adv-x="815" d="M57 -262q20 -2 62 -2q186 0 311 81t125 222q0 121 -91 175t-224 54h-58v131q119 12 228.5 105.5t109.5 195.5q0 68 -45 108t-117 40q-127 -2 -247 -94l-70 104q16 14 47 35.5t119 57.5t172 36q133 0 221 -75.5t88 -194.5q0 -106 -72.5 -195.5t-175.5 -148.5 q135 -29 209 -114t74 -208q0 -197 -167 -319.5t-429 -122.5q-37 0 -55 2z" />
<glyph unicode="4" d="M57 53v109l609 825h135v-803h194v-131h-194v-448h-160v448h-584zM231 184h410v555z" />
<glyph unicode="5" horiz-adv-x="817" d="M63 -262q20 -2 64 -2q182 0 308 81t126 230q0 74 -29.5 132.5t-71.5 93t-109.5 60t-123 37t-129.5 21.5v572h580v-138h-424v-319q475 -96 475 -451q0 -205 -166 -325.5t-426 -120.5q-39 0 -59 2z" />
<glyph unicode="6" horiz-adv-x="1040" d="M539 -25q-213 0 -327 170t-114 422q0 156 46 298.5t133.5 258t229.5 187t322 80.5l13 -131q-238 -14 -377 -149.5t-182 -344.5q90 113 270 113q190 0 297.5 -126t107.5 -309q0 -188 -112 -328.5t-307 -140.5zM532 739q-156 0 -266 -116q0 -240 73 -374t210 -134 q111 0 176.5 89t65.5 222q0 53 -11.5 102.5t-38 99.5t-80 80.5t-129.5 30.5z" />
<glyph unicode="7" horiz-adv-x="929" d="M137 -367q295 539 553 1178h-627v152h811v-109q-221 -551 -581 -1257z" />
<glyph unicode="8" horiz-adv-x="1044" d="M100 334q0 119 79 207t222 184q-219 174 -219 354q0 141 104.5 226.5t260.5 85.5q152 0 248 -83t96 -216q0 -106 -63.5 -190.5t-176.5 -164.5q139 -98 216 -188t77 -209q0 -152 -122 -258.5t-306 -106.5q-182 0 -299 106t-117 253zM776 330q0 59 -44 118.5t-87 93.5 l-135 101q-127 -84 -191.5 -151.5t-64.5 -151.5q0 -98 80 -161.5t184.5 -63.5t181 59.5t76.5 155.5zM350 1085q0 -74 49.5 -136t141.5 -132q94 68 145 129.5t51 134.5q0 84 -58 127t-136 43q-76 0 -134.5 -42t-58.5 -124z" />
<glyph unicode="9" horiz-adv-x="1040" d="M209 -266q238 12 377 144t182 327q-90 -111 -268 -111q-186 0 -292 128t-106 310q0 184 110 319.5t300 135.5q213 0 326.5 -170t113.5 -422q0 -152 -46 -288t-133 -247.5t-229.5 -180t-322.5 -76.5zM520 233q150 0 264 115q0 225 -72.5 362.5t-209.5 137.5 q-104 0 -168 -83t-64 -204q0 -57 10.5 -109.5t36 -104.5t77.5 -83t126 -31z" />
<glyph unicode=":" horiz-adv-x="555" d="M278.5 676q-51.5 0 -87 36t-35.5 87t35.5 87t87 36t87 -36t35.5 -87t-35.5 -87t-87 -36zM156 98.5q0 51.5 35.5 87t87 35.5t87 -35.5t35.5 -87t-35.5 -87.5t-87 -36t-87 36t-35.5 87.5z" />
<glyph unicode=";" horiz-adv-x="546" d="M152 174l167 55q78 -92 78 -221q0 -205 -207 -362l-71 73q53 47 71.5 66.5t38 59.5t19.5 89q0 105 -96 240zM150 799q0 51 35.5 87t87 36t87 -36t35.5 -87t-35.5 -87t-87 -36t-87 36t-35.5 87z" />
<glyph unicode="&#x3c;" d="M63 463v94l873 469l31 -139l-719 -377l719 -397l-31 -138z" />
<glyph unicode="=" d="M74 641v133h917v-133h-917zM74 252v133h917v-133h-917z" />
<glyph unicode="&#x3e;" d="M127 -25l-31 138l717 397l-717 377l31 139l872 -469v-94z" />
<glyph unicode="?" horiz-adv-x="731" d="M207 401q-6 29 -6 70q0 92 42 182t92 147.5t92 117t42 100.5q0 115 -293 235l-82 31l35 152q20 -6 56 -18.5t127 -52.5t161 -83t127 -110.5t57 -135.5q0 -51 -32.5 -105t-80.5 -105.5t-95.5 -109t-80 -140t-32.5 -175.5h-129zM156 98.5q0 51.5 35.5 87t87 35.5t87 -35.5 t35.5 -87t-35.5 -87.5t-87 -36t-87 36t-35.5 87.5z" />
<glyph unicode="@" horiz-adv-x="1701" d="M86 399q0 213 99.5 399.5t288 303.5t421.5 117q311 0 507.5 -191.5t196.5 -480.5q0 -299 -188 -441q-23 -18 -51.5 -32.5t-51 -23.5t-64.5 -21.5t-61.5 -16.5t-77.5 -17t-81 -20q-18 84 -29 152q-35 -63 -105.5 -107.5t-152.5 -44.5q-123 0 -207 107.5t-84 284.5 q0 250 165 402.5t393 152.5l135 -9v-622q0 -45 4 -87t8 -61l2 -18q156 18 231.5 124.5t75.5 274.5q0 250 -152.5 414t-410.5 164q-295 0 -483.5 -209t-188.5 -500q0 -270 162 -448t383 -189l-20 -112q-283 12 -473.5 232t-190.5 523zM776 115q51 0 102.5 37.5t75.5 76.5 l25 37v527q-160 0 -262.5 -120t-102.5 -294q0 -113 45 -188.5t117 -75.5z" />
<glyph unicode="A" horiz-adv-x="1267" d="M29 0l524 1376h162l524 -1376h-176l-154 412h-557l-153 -412h-170zM631 1155l-225 -602h450z" />
<glyph unicode="B" horiz-adv-x="1202" d="M201 0v1366h356q244 0 353.5 -95t109.5 -233q0 -178 -166 -305q37 -12 73 -32.5t78 -59.5t68.5 -101.5t26.5 -142.5q0 -180 -130 -288.5t-337 -108.5h-432zM369 141h233q160 0 239 65.5t79 178.5q0 115 -79 181.5t-239 66.5h-233v-492zM369 1225v-451h317l16.5 10.5 t37 29t47 49t37 69.5t16.5 90q0 203 -314 203h-157z" />
<glyph unicode="C" horiz-adv-x="1378" d="M102 674q0 305 202 511t532 206q121 0 234.5 -30t166.5 -58l51 -29l-67 -152q-18 14 -51 35t-136.5 54.5t-210.5 33.5q-172 0 -298 -83t-184 -207t-58 -269q0 -238 154.5 -401.5t389.5 -163.5q211 0 394 127l14 10l70 -127q-23 -18 -63 -44t-168 -69t-261 -43 q-309 0 -510 197t-201 502z" />
<glyph unicode="D" horiz-adv-x="1480" d="M201 0v1366h413q147 0 277.5 -36t241 -111.5t176 -207.5t65.5 -306q0 -336 -229.5 -520.5t-607.5 -184.5h-336zM369 141h147q352 0 515 149.5t163 395.5q0 250 -157.5 394.5t-450.5 144.5h-217v-1084z" />
<glyph unicode="E" horiz-adv-x="1110" d="M201 0v1366h805v-141h-637v-457h503v-141h-503v-486h635v-141h-803z" />
<glyph unicode="F" horiz-adv-x="1048" d="M201 0v1366h786v-141h-618v-463h489v-150h-489v-612h-168z" />
<glyph unicode="G" horiz-adv-x="1429" d="M102 664q0 303 199 515t539 212q121 0 234.5 -26t166.5 -50l53 -27l-67 -151q-18 12 -52 30.5t-138.5 48t-207.5 29.5q-260 0 -404 -167t-144 -400q0 -244 159.5 -400.5t425.5 -156.5l258 35v403h-293v141h461v-661q-252 -63 -452 -64q-313 0 -525.5 188t-212.5 501z" />
<glyph unicode="H" horiz-adv-x="1544" d="M201 0v1366h168v-598h807v598h167v-1366h-167v627h-807v-627h-168z" />
<glyph unicode="I" horiz-adv-x="569" d="M201 0v1366h168v-1366h-168z" />
<glyph unicode="J" horiz-adv-x="571" d="M-35 -229q238 29 238 383v1212h168v-1210q0 -92 -17.5 -174t-54.5 -157t-105.5 -125t-162.5 -65z" />
<glyph unicode="K" horiz-adv-x="1187" d="M201 0v1366h168v-580h28l547 580h213l-614 -641l639 -725h-221l-564 645h-28v-645h-168z" />
<glyph unicode="L" horiz-adv-x="1054" d="M201 0v1366h168v-1225h655v-141h-823z" />
<glyph unicode="M" horiz-adv-x="1767" d="M178 0l49 1366h242l412 -1128l417 1128h242l49 -1366h-164l-43 1161l-438 -1161h-127l-438 1176l-37 -1176h-164z" />
<glyph unicode="N" horiz-adv-x="1529" d="M201 0v1366h168l796 -1114v1114h164v-1366h-168l-796 1098v-1098h-164z" />
<glyph unicode="O" horiz-adv-x="1628" d="M102 680q0 184 82 344t250 263.5t389 103.5q313 0 508 -196t195 -486q0 -299 -203 -516.5t-518 -217.5q-307 0 -505 207t-198 498zM283 692q0 -221 144 -396t384 -175q242 0 388.5 173t146.5 398q0 223 -144.5 388t-388.5 165q-242 0 -386 -166t-144 -387z" />
<glyph unicode="P" horiz-adv-x="1155" d="M201 0v1366h395q248 0 367.5 -112.5t119.5 -290.5q0 -205 -134 -322t-353 -117h-227v-524h-168zM369 666h196q170 0 254 73.5t84 208.5q0 125 -81 201t-257 76h-196v-559z" />
<glyph unicode="Q" horiz-adv-x="1628" d="M104 680q0 184 82 344t248 263.5t385 103.5q315 0 512 -196t197 -486q0 -248 -146.5 -447t-386.5 -262l69 -87q26 -32 80 -83t102 -80t119 -51.5t148 -22.5l-24 -153h-15q-72 0 -141 17q-76 19 -125 42t-107.5 71t-81 70.5t-66.5 76t-46 55.5l-61 71q-37 45 -123 54 q-276 31 -447.5 229.5t-171.5 470.5zM285 692q0 -104 34.5 -204.5t98 -183.5t166 -133t227.5 -50q240 0 388.5 174t148.5 399q0 219 -143.5 385t-387.5 166q-242 0 -387 -166t-145 -387z" />
<glyph unicode="R" horiz-adv-x="1216" d="M201 0v1366h358q248 0 368 -106.5t120 -266.5q0 -137 -82 -234t-201 -149l414 -610h-199l-391 575h-219v-575h-168zM369 717h215q109 0 195.5 70.5t86.5 189.5q0 106 -82 177t-256 71h-159v-508z" />
<glyph unicode="S" horiz-adv-x="1042" d="M98 90l45 158q18 -14 50 -34.5t125.5 -54.5t181.5 -34q117 0 194.5 52t77.5 147q0 86 -66.5 151.5t-162.5 114.5l-192 102q-95 53 -161.5 140.5t-66.5 201.5q0 154 118.5 255.5t325.5 101.5q80 0 167 -15.5t134 -32.5l47 -14l-43 -158q-152 70 -311 70q-119 0 -193.5 -49 t-74.5 -139q0 -86 66.5 -152.5t162.5 -114t191.5 -100.5t162 -141t66.5 -209q0 -172 -127 -266.5t-321 -94.5q-106 0 -205 29t-146 57z" />
<glyph unicode="T" horiz-adv-x="1212" d="M518 0v1225h-483v141h1143v-141h-492v-1225h-168z" />
<glyph unicode="U" horiz-adv-x="1472" d="M182 492v874h168v-842q0 -205 105.5 -304t281.5 -99q174 0 279.5 98t105.5 293v854h168v-846q0 -258 -157.5 -401.5t-397.5 -143.5q-248 0 -400.5 126.5t-152.5 390.5z" />
<glyph unicode="V" horiz-adv-x="1206" d="M520 -10l-491 1376h178l399 -1128l400 1128h172l-494 -1376h-164z" />
<glyph unicode="W" horiz-adv-x="1935" d="M469 -10l-418 1376h172l336 -1130l326 1130h172l323 -1130l338 1130h168l-420 -1376h-172l-325 1102l-328 -1102h-172z" />
<glyph unicode="X" horiz-adv-x="1212" d="M51 0l457 680l-457 686h199l358 -551l361 551h192l-456 -682l456 -684h-198l-359 551l-360 -551h-193z" />
<glyph unicode="Y" horiz-adv-x="1177" d="M506 0v594l-490 772h199l377 -608l381 608h188l-487 -770v-596h-168z" />
<glyph unicode="Z" horiz-adv-x="1185" d="M74 0v96l794 1129h-747v141h962v-96l-784 -1129h797v-141h-1022z" />
<glyph unicode="[" horiz-adv-x="587" d="M174 -317v1683h375v-113h-242v-1458h242v-112h-375z" />
<glyph unicode="\" horiz-adv-x="937" d="M748 -401l-680 1767h141l682 -1767h-143z" />
<glyph unicode="]" horiz-adv-x="587" d="M39 -205h242v1458h-242v113h375v-1683h-375v112z" />
<glyph unicode="^" horiz-adv-x="1011" d="M16 512l439 879h102l438 -879h-155l-336 676l-336 -676h-152z" />
<glyph unicode="_" horiz-adv-x="1097" d="M37 -76h1024v-121h-1024v121z" />
<glyph unicode="`" horiz-adv-x="1032" d="M614 1036l-286 396h174l207 -340z" />
<glyph unicode="a" horiz-adv-x="960" d="M74 207q0 141 143 230t410 124v35q0 45 -1 65.5t-8.5 54.5t-22.5 49t-45 28.5t-75 13.5q-150 -2 -289 -102l-49 129q16 12 49 30.5t132.5 50t201.5 31.5q147 0 206.5 -67.5t59.5 -225.5v-415q0 -104 88 -121l15 -2l-53 -129q-164 18 -199 149q-10 -16 -30.5 -37.5 t-57.5 -52.5t-94.5 -50.5t-122.5 -19.5q-117 0 -187.5 65t-70.5 167zM365 115q125 0 262 159v170q-199 -33 -291 -86t-92 -141q0 -102 121 -102z" />
<glyph unicode="b" horiz-adv-x="1067" d="M152 16v1418l159 28v-637q94 121 267 121q180 0 288.5 -129t108.5 -325q0 -215 -133 -366t-381 -151q-145 0 -309 41zM557 807q-135 0 -246 -123v-555q70 -20 158 -20q152 0 245 97t93 275q0 150 -68.5 238t-181.5 88z" />
<glyph unicode="c" horiz-adv-x="933" d="M90 451q0 201 128 348t343 147q88 0 163 -24.5t107 -49.5l31 -26l-71 -125q-10 10 -31 24.5t-83.5 38t-125.5 23.5q-133 0 -213 -100.5t-80 -247.5q0 -145 81 -244.5t218 -99.5q143 4 250 98l55 -119q-12 -12 -35.5 -32.5t-106.5 -53.5t-175 -33q-201 0 -328 135.5 t-127 340.5z" />
<glyph unicode="d" horiz-adv-x="1091" d="M92 430q0 213 133 364.5t369 151.5q100 0 178 -33v521l160 28v-1177q0 -49 10 -121t21 -119l10 -45l-158 -14q-18 84 -29 147q-98 -158 -299 -158q-176 0 -285.5 130t-109.5 325zM508 115q66 0 128 36.5t89 68.5t47 63v397q-6 131 -176 131q-150 0 -242 -98.5t-92 -272.5 q0 -150 70 -237.5t176 -87.5z" />
<glyph unicode="e" horiz-adv-x="997" d="M92 440q0 219 124 362.5t319 143.5q164 0 266 -109.5t102 -301.5l-98 -29l-543 -72q10 -145 91 -232t214 -87q70 0 142.5 28.5t109.5 57.5l37 30l47 -122q-14 -14 -43 -37t-121 -60t-190 -37q-217 0 -337 135t-120 330zM524 813q-106 0 -173.5 -71.5t-86.5 -184.5l463 59 q0 8 -3 21.5t-15.5 47.5t-33 59.5t-60.5 47t-91 21.5z" />
<glyph unicode="f" horiz-adv-x="669" d="M57 793v84l146 55v98q0 217 103.5 339t277.5 122q68 0 132 -19.5t95 -37.5l31 -21l-74 -127q-92 66 -188 66q-94 0 -156 -76t-62 -238v-116h261v-129h-261v-793h-159v793h-146z" />
<glyph unicode="g" horiz-adv-x="1026" d="M145 166q0 80 142 164q-84 43 -131 120.5t-47 174.5q0 145 111.5 233t268.5 88q53 0 134.5 -19.5t130.5 -19.5h98q27 0 56.5 5.5t45.5 9.5l19 6l14 -144h-117q-35 0 -75 4q70 -76 69 -180q0 -152 -118.5 -235.5t-272.5 -83.5q-39 0 -74 6q-82 -59 -82 -86t58.5 -46.5 t199.5 -49.5q8 -2 13 -2q82 -18 133 -34t108.5 -44.5t86 -73.5t28.5 -104q0 -139 -146.5 -239.5t-344.5 -100.5q-162 0 -278 64.5t-116 180.5q0 158 240 281q-154 45 -154 125zM207 -217q0 -76 80 -110.5t178 -34.5q129 0 222 58t93 136q0 61 -61.5 94t-183.5 60 q-41 10 -103 20q-57 -31 -83.5 -47t-66.5 -47t-57.5 -61.5t-17.5 -67.5zM487 412q94 0 153.5 50t59.5 138q0 86 -57 154.5t-160 68.5q-96 0 -153.5 -59t-57.5 -150q0 -84 55.5 -143t159.5 -59z" />
<glyph unicode="h" horiz-adv-x="1081" d="M156 0v1434l159 28v-704q176 188 379 188q111 0 176.5 -67.5t65.5 -208.5v-670h-160v625q0 180 -125 180q-127 0 -336 -195v-610h-159z" />
<glyph unicode="i" horiz-adv-x="471" d="M238 1155q-45 0 -78 33t-33 78t33 77.5t78 32.5t77.5 -32.5t32.5 -77.5t-32.5 -78t-77.5 -33zM156 0v922h159v-922h-159z" />
<glyph unicode="j" horiz-adv-x="471" d="M235.5 1155q-47.5 0 -79 33t-31.5 78t31.5 77.5t79 32.5t79 -32.5t31.5 -77.5t-31.5 -78t-79 -33zM156 -14v936h159v-906q0 -233 -84 -354t-247 -147l-50 133q222 43 222 338z" />
<glyph unicode="k" horiz-adv-x="966" d="M156 0v1434l159 28v-895h23l364 355h213l-430 -408l469 -514h-215l-399 449h-25v-449h-159z" />
<glyph unicode="l" horiz-adv-x="471" d="M156 0v1434l159 28v-1462h-159z" />
<glyph unicode="m" horiz-adv-x="1646" d="M152 0v907l159 29v-178q176 188 371 188q184 0 221 -184q184 184 367 184q104 0 167.5 -67.5t63.5 -208.5v-670h-160v625q0 180 -114 180q-121 0 -314 -180v-625h-159v625q0 180 -115 180q-133 0 -328 -195v-610h-159z" />
<glyph unicode="n" horiz-adv-x="1079" d="M152 0v907l159 29v-180q184 190 381 190q111 0 176.5 -67.5t65.5 -208.5v-670h-160v625q0 180 -125 180q-135 0 -338 -197v-608h-159z" />
<glyph unicode="o" horiz-adv-x="1091" d="M90 457q0 121 49 229.5t156.5 184t253.5 75.5q205 0 328.5 -139t123.5 -328q0 -119 -48 -230.5t-157.5 -192.5t-254.5 -81q-205 0 -328 143.5t-123 338.5zM258 475.5q0 -149.5 74 -255t215 -105.5q129 0 208 94t79 244q0 147 -72 250.5t-217 103.5q-131 0 -209 -91 t-78 -240.5z" />
<glyph unicode="p" horiz-adv-x="1073" d="M152 -475v1382l155 29v-143q37 66 108.5 109.5t174.5 43.5q176 0 283.5 -131t107.5 -328q0 -215 -128 -363.5t-335 -148.5q-133 0 -207 58v-479zM569 803q-150 0 -258 -158v-414q0 -121 174 -120q150 0 238 97t88 267q0 152 -68 240t-174 88z" />
<glyph unicode="q" horiz-adv-x="1067" d="M92 430q0 215 133 365.5t381 150.5l309 -41v-1351l-159 -29v573q-84 -123 -267 -123q-180 0 -288.5 129t-108.5 326zM510 119q131 0 246 121v551q-70 20 -158 20q-152 0 -245 -96.5t-93 -274.5q0 -147 68.5 -234t181.5 -87z" />
<glyph unicode="r" horiz-adv-x="684" d="M152 0v907l159 29v-182q39 70 107.5 131t161.5 61q23 0 43 -4t28 -8l8 -6l-41 -172q-41 16 -77 16q-121 0 -230 -188v-584h-159z" />
<glyph unicode="s" horiz-adv-x="804" d="M86 57l35 142q117 -90 264 -90q84 0 128 32.5t44 87.5q0 53 -47 94.5t-112.5 71t-132 63.5t-114 93t-47.5 141q0 113 84 183.5t252 70.5q70 0 133.5 -12t94.5 -25l28 -14l-43 -135q-111 53 -225 53q-80 0 -121 -29.5t-41 -78.5q0 -51 47 -90.5t113 -68t132.5 -63 t113.5 -96t47 -145.5q0 -123 -91 -195t-247 -72q-82 0 -155.5 20.5t-106.5 41.5z" />
<glyph unicode="t" horiz-adv-x="741" d="M197 244v549h-131v86l131 53v205l159 39v-254h299v-129h-299v-506q0 -172 113 -172q94 0 195 84l38 -129q-12 -10 -35.5 -25.5t-93 -42.5t-137.5 -27q-239 1 -239 269z" />
<glyph unicode="u" d="M143 252v670h160v-625q0 -180 131 -180q139 0 311 172v633h160v-637q0 -49 10.5 -121t20.5 -119l10 -45l-158 -14q-23 102 -30 168q-166 -178 -365 -179q-250 1 -250 277z" />
<glyph unicode="v" horiz-adv-x="933" d="M365 -10l-328 932h168l244 -723l290 723h166l-389 -932h-151z" />
<glyph unicode="w" horiz-adv-x="1517" d="M338 -10l-295 932h168l219 -742l264 742h144l221 -742l260 742h166l-357 -932h-155l-219 702l-260 -702h-156z" />
<glyph unicode="x" horiz-adv-x="933" d="M55 0l318 461l-318 461h191l223 -338l225 338h185l-318 -457l318 -465h-183l-231 346l-234 -346h-176z" />
<glyph unicode="y" horiz-adv-x="935" d="M43 -352q180 37 289 282l59 138l-358 854h174l268 -652l260 652h168l-411 -992q-74 -178 -167.5 -288.5t-230.5 -126.5z" />
<glyph unicode="z" horiz-adv-x="888" d="M86 0l-2 96l491 688h-475v138h686v-97l-499 -688h518v-137h-719z" />
<glyph unicode="{" horiz-adv-x="696" d="M293 -135v29v100q0 37 -5 106.5t-14.5 112.5t-29 99.5t-46 88t-69.5 55t-96 25.5v113q53 2 96 24.5t69.5 52t46 85t29 95.5t14.5 109.5t5 102.5v98v29q0 166 113.5 247t304.5 81v-105q-98 -6 -153.5 -24.5t-83.5 -63.5t-35 -95t-7 -149q0 -457 -219 -540v-4 q94 -37 156.5 -171.5t62.5 -392.5q0 -98 7 -148t35 -94t83 -62.5t154 -26.5v-105q-418 0 -418 328z" />
<glyph unicode="|" horiz-adv-x="477" d="M172 -461v1995h133v-1995h-133z" />
<glyph unicode="}" horiz-adv-x="696" d="M264 -27q0 258 62.5 392.5t156.5 171.5v4q-219 84 -219 540q0 98 -7 148.5t-34.5 95.5t-83 63.5t-153.5 24.5v105q190 0 303.5 -81t113.5 -247v-29v-98q0 -35 5.5 -102.5t14.5 -109.5t28.5 -95.5t46 -84t69.5 -53t97 -24.5v-113q-53 -2 -96.5 -25.5t-70 -55t-46 -88 t-28.5 -99.5t-14.5 -113.5t-5.5 -105.5v-100v-29q0 -328 -417 -328v105q98 8 153.5 26.5t83 62.5t34.5 94t7 148z" />
<glyph unicode="~" horiz-adv-x="1191" d="M131 358q0 317 266 318q80 0 141.5 -31t93.5 -68.5t76 -68.5t91 -31q135 0 135 191h131q0 -317 -266 -318q-80 0 -141.5 31t-93.5 68.5t-76 68.5t-91 31q-135 0 -135 -191h-131z" />
<glyph unicode="&#xa1;" horiz-adv-x="524" d="M334 520l22 -989h-190l27 989h141zM383 823q0 -51 -36 -87t-87 -36t-87 36t-36 87t36 87t87 36t87 -36t36 -87z" />
<glyph unicode="&#xa2;" horiz-adv-x="921" d="M426 -45l4 188q-156 27 -250 147t-94 279q0 162 97.5 286t269.5 146l6 181h90l-4 -178q176 -8 278 -113l6 -8l-92 -113q-76 82 -196 94l-17 -588q139 4 246 99l55 -119q-12 -12 -35.5 -31.5t-102.5 -53.5t-167 -34l-4 -182h-90zM254 575q0 -100 47 -179t133 -107l15 571 q-92 -20 -143.5 -99.5t-51.5 -185.5z" />
<glyph unicode="&#xa3;" horiz-adv-x="1101" d="M125 489v103h137l23 170q49 395 360 395q182 0 295 -113l10 -10l-92 -112q-8 10 -25.5 26.5t-75 43t-118.5 26.5q-84 0 -133 -57.5t-64 -204.5l-16 -164h381l-10 -103h-381q-8 -90 -26.5 -174t-33.5 -122l-14 -39q184 -66 322 -66q98 0 152 53.5t67 184.5h129 q-8 -76 -24.5 -136.5t-50.5 -119t-96.5 -90t-148.5 -31.5q-82 0 -232.5 40t-199.5 40q-61 0 -137 -29l-41 111q14 4 35.5 14t61.5 57t48 113l23 194h-125z" />
<glyph unicode="&#xa5;" horiz-adv-x="1138" d="M193 553v102h192l-303 478h182l305 -496l312 496h170l-303 -478h215v-102h-281l-35 -57v-82h316v-103h-316v-311h-160v311h-294v103h294v80l-38 59h-256z" />
<glyph unicode="&#xa6;" horiz-adv-x="507" d="M180 672v733h148v-733h-148zM180 354h148v-733h-148v733z" />
<glyph unicode="&#xa7;" horiz-adv-x="1001" d="M309 -188q35 82 35 188q0 53 -10 115l-123 696q-12 70 -12 137q0 193 97 318t286 125q86 0 170 -27t125 -53l41 -27l-62 -104q-129 96 -270 96q-125 0 -191.5 -92t-66.5 -236q0 -59 12 -121l113 -620q20 -119 20 -205q0 -137 -51 -213zM119 -274q129 -96 270 -97 q125 0 190.5 91.5t65.5 236.5q0 70 -10 121l-113 620q-23 131 -22 205q0 135 53 213l113 -22q-35 -76 -35 -189q0 -53 10 -114l123 -697q12 -70 12 -139q0 -190 -96 -315t-287 -125q-86 0 -170 26.5t-125 52.5l-41 27z" />
<glyph unicode="&#xa8;" horiz-adv-x="1032" d="M698 1161q-41 0 -72.5 31t-31.5 74t31.5 73.5t72.5 30.5q43 0 75 -30.5t32 -73.5t-32 -74t-75 -31zM332 1161q-43 0 -75 31t-32 74t32 73.5t75 30.5q41 0 72.5 -30.5t31.5 -73.5t-31.5 -74t-72.5 -31z" />
<glyph unicode="&#xa9;" horiz-adv-x="1593" d="M90 682q0 293 207 500t500 207t499.5 -207t206.5 -500t-206.5 -500t-499.5 -207t-500 207t-207 500zM195 682q0 -254 175 -433t427 -179t427 179t175 433t-175 433t-427 179t-427 -179t-175 -433zM401 676q0 172 111 299t307 127q180 0 285 -113l10 -10l-92 -113l-28 27 q-17 16 -73.5 43t-113.5 27q-113 0 -175.5 -78t-62.5 -193q0 -117 72 -197.5t190 -80.5q129 4 224 98l55 -119q-10 -12 -31.5 -32.5t-97.5 -53.5t-162 -33q-182 0 -300 116t-118 286z" />
<glyph unicode="&#xaa;" horiz-adv-x="790" d="M281 711q-84 0 -134.5 45t-50.5 118q0 205 389 259v22q0 70 -18 99.5t-80 29.5q-49 0 -101.5 -20.5t-80.5 -40.5l-29 -21l-35 111q111 78 283 78q111 0 155 -47.5t44 -157.5v-283q8 -74 73 -80l-41 -106q-131 6 -159 100q-84 -106 -215 -106zM313 817q76 0 172 113v108 q-127 -23 -185 -59.5t-58 -93.5q-1 -68 71 -68z" />
<glyph unicode="&#xab;" horiz-adv-x="1046" d="M440 510v8q35 27 285 303l115 125l110 -31l-309 -401l309 -401l-110 -31l-168 182l-111 121l-60 66l-38 38q-11 11 -23 21zM449 82l-168 182l-111 121l-60 66l-38 38q-10 10 -23 21v8q35 27 285 303l115 125l110 -31l-309 -401l309 -401z" />
<glyph unicode="&#xac;" horiz-adv-x="1177" d="M111 664v133h938v-570h-142v437h-796z" />
<glyph unicode="&#xad;" horiz-adv-x="692" d="M115 438v148h463v-148h-463z" />
<glyph unicode="&#xae;" horiz-adv-x="884" d="M442.5 733q-145.5 0 -250 104.5t-104.5 250t104.5 250t250 104.5t250 -104.5t104.5 -250t-104.5 -250t-250 -104.5zM440.5 793q116.5 0 201.5 87t85 207q0 119 -85 206t-201.5 87t-199.5 -86t-83 -206.5t83 -207.5t199.5 -87zM520 918l-88 126h-37v-126h-84v348h123 q143 0 144 -105q0 -68 -68 -100l104 -143h-94zM395 1100h45q51 0 52 53q0 55 -66 55h-31v-108z" />
<glyph unicode="&#xaf;" horiz-adv-x="1011" d="M272 1204v125h467v-125h-467z" />
<glyph unicode="&#xb0;" horiz-adv-x="679" d="M340 899q-104 0 -177 71.5t-73 174t73 174.5t177 72t177 -72t73 -174.5t-73 -174t-177 -71.5zM340 993q61 0 104 44t43 107.5t-43 107.5t-104 44t-104 -44t-43 -107.5t43 -107.5t104 -44z" />
<glyph unicode="&#xb1;" d="M78 641v133h381v369h141v-369h385v-133h-385v-395h-141v395h-381zM80 0v133h907v-133h-907z" />
<glyph unicode="&#xb2;" horiz-adv-x="698" d="M68 770l-11 66q213 207 271 274q113 139 112 248q0 63 -37.5 98t-97.5 35q-39 0 -79 -18.5t-62 -36.5l-21 -19l-71 82q10 12 30.5 30.5t90 50.5t143.5 32q117 0 182.5 -66.5t65.5 -171.5q0 -96 -65.5 -201.5t-248.5 -289.5h369v-113h-571z" />
<glyph unicode="&#xb3;" horiz-adv-x="661" d="M274 756q-59 0 -115.5 15t-82.5 32l-27 16l55 99q78 -45 172 -46q74 0 117 34t43 89q0 63 -58.5 97t-144.5 34h-47v111q80 6 146.5 53t66.5 117q0 88 -102 88q-39 0 -80 -12.5t-61 -24.5l-21 -14l-53 88q96 80 231 80q100 0 166 -52.5t66 -134.5q0 -131 -166 -213 q94 -20 148.5 -77.5t54.5 -135.5q0 -102 -88.5 -172.5t-219.5 -70.5z" />
<glyph unicode="&#xb4;" horiz-adv-x="1032" d="M418 1036l-94 56l206 340h175z" />
<glyph unicode="&#xb5;" horiz-adv-x="1148" d="M166 -80v1002h160v-625q0 -180 131 -180q139 0 311 172v633h160v-684q0 -82 22.5 -102.5t110.5 -20.5v-129q-61 -10 -98 -11q-172 0 -191 170q-164 -170 -356 -170q-61 0 -111 19q2 -88 12.5 -244t10.5 -192h-183q21 198 21 362z" />
<glyph unicode="&#x3bc;" horiz-adv-x="1148" d="M166 -80v1002h160v-625q0 -180 131 -180q139 0 311 172v633h160v-684q0 -82 22.5 -102.5t110.5 -20.5v-129q-61 -10 -98 -11q-172 0 -191 170q-164 -170 -356 -170q-61 0 -111 19q2 -88 12.5 -244t10.5 -192h-183q21 198 21 362z" />
<glyph unicode="&#xb6;" horiz-adv-x="1353" d="M430 -356q133 0 193.5 73.5t60.5 241.5v408h-18q-291 0 -443.5 145t-152.5 352q0 203 154.5 352.5t430.5 149.5h596v-117h-151v-1249h-127v1249h-154v-1290q0 -444 -358 -444z" />
<glyph unicode="&#xb7;" horiz-adv-x="512" d="M256 397q-51 0 -87 36t-36 87t36 87t87 36t87 -36t36 -87t-36 -87t-87 -36z" />
<glyph unicode="&#xb8;" horiz-adv-x="1032" d="M461 -150q0 25 37 109l18 41h102l-16 -35q-23 -49 -22 -67q0 -23 27.5 -40.5t59 -30.5t59.5 -45t28 -77q0 -76 -65.5 -133t-162.5 -57q-49 0 -97 15t-71 32l-22 16l43 100q66 -57 143 -57q45 0 75 19.5t30 48.5q0 23 -26 41t-57.5 30.5t-57 35.5t-25.5 54z" />
<glyph unicode="&#xb9;" horiz-adv-x="575" d="M68 770v104h172v619h-158v104h297v-723h162v-104h-473z" />
<glyph unicode="&#xba;" horiz-adv-x="845" d="M420 711q-150 0 -240 100t-90 238q0 133 90 237.5t246 104.5q150 0 240 -97.5t90 -230.5t-89 -242.5t-247 -109.5zM424 817q86 0 137 63.5t51 163.5q0 98 -48 169t-142 71q-86 0 -137.5 -61.5t-51.5 -161.5t48.5 -172t142.5 -72z" />
<glyph unicode="&#xbb;" horiz-adv-x="1048" d="M489 113l310 401l-310 401l111 31q362 -397 389 -420q4 -2 10 -8v-8q-12 -10 -22 -21l-38 -38l-60 -66l-111 -121l-168 -182zM98 113l310 401l-310 401l111 31q362 -397 389 -420q4 -2 10 -8v-8q-12 -10 -22 -21l-38 -38l-61 -66l-110 -121l-168 -182z" />
<glyph unicode="&#xbc;" horiz-adv-x="1671" d="M1339 0v215h-376l-11 80l398 539h125v-510h122v-109h-122v-215h-136zM1098 324h241v325zM96 549v104h172v619h-157v104h297v-723h161v-104h-473zM500 0h-146l813 1407l117 -43z" />
<glyph unicode="&#xbd;" horiz-adv-x="1792" d="M94 549v104h172v619h-157v104h297v-723h161v-104h-473zM1147 0l-10 66q213 207 270 274q113 139 113 248q0 63 -38 98t-98 35q-39 0 -78.5 -18.5t-60.5 -36.5l-22 -19l-72 82q10 12 30.5 30.5t90 50.5t143.5 32q117 0 182.5 -66.5t65.5 -171.5q0 -96 -65.5 -201.5 t-247.5 -289.5h368v-113h-571zM500 0h-146l813 1407l117 -43z" />
<glyph unicode="&#xbe;" horiz-adv-x="1648" d="M1317 0v215h-377l-10 80l397 539h125v-510h123v-109h-123v-215h-135zM1075 324h242v325zM307 535q-59 0 -115.5 15t-82.5 32l-27 16l55 98q78 -45 172 -45q74 0 117 34t43 89q0 63 -58.5 97t-144.5 34h-47v111q80 6 146.5 53t66.5 117q0 88 -102 88q-39 0 -80 -12.5 t-62 -24.5l-20 -14l-53 88q96 80 231 80q100 0 166 -52.5t66 -134.5q0 -131 -166 -213q94 -20 148 -77.5t54 -135.5q0 -102 -88 -172.5t-219 -70.5zM477 0h-145l813 1407l117 -43z" />
<glyph unicode="&#xbf;" horiz-adv-x="716" d="M522 520q6 -29 6 -69q0 -90 -42 -176.5t-92 -141.5t-92 -112.5t-42 -96.5q0 -115 293 -235l82 -31l-35 -152q-20 6 -56 18.5t-127 52.5t-161 83t-127 110.5t-57 135.5q0 49 32.5 101t79.5 103l96 106q48 56 80.5 135t32.5 169h129zM573 823q0 -51 -35.5 -87t-87 -36 t-87 36t-35.5 87t35.5 87t87 36t87 -36t35.5 -87z" />
<glyph unicode="&#xc0;" horiz-adv-x="1267" d="M29 0l524 1376h162l524 -1376h-176l-154 412h-557l-153 -412h-170zM631 1155l-225 -602h450zM356 1616l64 147l395 -194l-39 -99z" />
<glyph unicode="&#xc1;" horiz-adv-x="1267" d="M29 0l524 1376h162l524 -1376h-176l-154 412h-557l-153 -412h-170zM631 1155l-225 -602h450zM485 1470l-39 99l396 194l63 -147z" />
<glyph unicode="&#xc2;" horiz-adv-x="1267" d="M29 0l524 1376h162l524 -1376h-176l-154 412h-557l-153 -412h-170zM631 1155l-225 -602h450zM395 1470l-92 78l258 236h141l256 -236l-92 -78l-233 203z" />
<glyph unicode="&#xc3;" horiz-adv-x="1267" d="M29 0l524 1376h162l524 -1376h-176l-154 412h-557l-153 -412h-170zM631 1155l-225 -602h450zM268 1501v12q0 29 6.5 60t23.5 75t63.5 71.5t113.5 27.5q70 0 123 -34t95 -67.5t83 -33.5q90 0 90 119v16h127v-14q0 -29 -6 -61t-24.5 -77t-65.5 -73.5t-116.5 -28.5t-122 34 t-92.5 67.5t-81 33.5q-90 0 -90 -115v-12h-127z" />
<glyph unicode="&#xc4;" horiz-adv-x="1267" d="M29 0l524 1376h162l524 -1376h-176l-154 412h-557l-153 -412h-170zM631 1155l-225 -602h450zM866 1520q-41 0 -72.5 30.5t-31.5 73.5t31.5 74t72.5 31q43 0 75 -31t32 -74t-32 -73.5t-75 -30.5zM397 1520q-43 0 -74.5 30.5t-31.5 73.5t31.5 74t74.5 31q41 0 73 -31 t32 -74t-32 -73.5t-73 -30.5z" />
<glyph unicode="&#xc5;" horiz-adv-x="1267" d="M29 0l524 1376h162l524 -1376h-176l-154 412h-557l-153 -412h-170zM631 1155l-225 -602h450zM631 1456q-92 0 -142.5 49t-50.5 117q0 66 50.5 114t142.5 48t142 -48t50 -114q0 -68 -50 -117t-142 -49zM631 1526q45 0 71.5 28.5t26.5 65.5q0 39 -25.5 66.5t-72.5 27.5 q-49 0 -72.5 -27.5t-23.5 -66.5t24.5 -66.5t71.5 -27.5z" />
<glyph unicode="&#xc6;" horiz-adv-x="1767" d="M-4 0l762 1366h905v-141h-637v-457h504v-141h-504v-486h635v-141h-803v457h-430l-252 -457h-180zM858 1235l-352 -637h352v637z" />
<glyph unicode="&#xc7;" horiz-adv-x="1384" d="M666 -150q0 25 36 109l11 23q-270 33 -439.5 223t-169.5 469q0 305 202 511t532 206q121 0 234.5 -30t164.5 -58l53 -29l-67 -152q-18 14 -51 35t-136.5 54.5t-210.5 33.5q-172 0 -298 -83t-184 -207t-58 -269q0 -238 154.5 -401.5t389.5 -163.5q211 0 394 127l14 10 l70 -127q-23 -18 -63 -44t-168 -69t-261 -43h-4l-4 -10q-23 -49 -23 -67q0 -23 28 -40.5t59.5 -30.5t59 -45t27.5 -77q0 -76 -65.5 -133t-161.5 -57q-49 0 -97 15t-71 32l-22 16l43 100q66 -57 143 -57q45 0 74.5 19.5t29.5 48.5q0 23 -25.5 41t-57 30.5t-57 35.5t-25.5 54z " />
<glyph unicode="&#xc8;" horiz-adv-x="1110" d="M201 0v1366h805v-141h-637v-457h503v-141h-503v-486h635v-141h-803zM340 1616l63 147l396 -194l-39 -99z" />
<glyph unicode="&#xc9;" horiz-adv-x="1110" d="M201 0v1366h805v-141h-637v-457h503v-141h-503v-486h635v-141h-803zM469 1470l-39 99l395 194l64 -147z" />
<glyph unicode="&#xca;" horiz-adv-x="1110" d="M201 0v1366h805v-141h-637v-457h503v-141h-503v-486h635v-141h-803zM379 1470l-92 78l258 236h141l256 -236l-92 -78l-234 203z" />
<glyph unicode="&#xcb;" horiz-adv-x="1110" d="M201 0v1366h805v-141h-637v-457h503v-141h-503v-486h635v-141h-803zM850 1520q-41 0 -73 30.5t-32 73.5t32 74t73 31q43 0 74.5 -31t31.5 -74t-31.5 -73.5t-74.5 -30.5zM381 1520q-43 0 -75 30.5t-32 73.5t32 74t75 31q41 0 72.5 -31t31.5 -74t-31.5 -73.5t-72.5 -30.5z " />
<glyph unicode="&#xcc;" horiz-adv-x="569" d="M201 0v1366h168v-1366h-168zM10 1616l64 147l395 -194l-39 -99z" />
<glyph unicode="&#xcd;" horiz-adv-x="569" d="M201 0v1366h168v-1366h-168zM139 1470l-39 99l396 194l63 -147z" />
<glyph unicode="&#xce;" horiz-adv-x="569" d="M201 0v1366h168v-1366h-168zM49 1470l-92 78l258 236h141l256 -236l-92 -78l-233 203z" />
<glyph unicode="&#xcf;" horiz-adv-x="569" d="M201 0v1366h168v-1366h-168zM471 1520q-41 0 -72.5 30.5t-31.5 73.5t31.5 74t72.5 31q43 0 75 -31t32 -74t-32 -73.5t-75 -30.5zM104 1520q-43 0 -74.5 30.5t-31.5 73.5t31.5 74t74.5 31q41 0 73 -31t32 -74t-32 -73.5t-73 -30.5z" />
<glyph unicode="&#xd0;" horiz-adv-x="1497" d="M70 623v141h147v602h414q147 0 277 -36t241 -111.5t176.5 -207.5t65.5 -306q0 -336 -229.5 -520.5t-608.5 -184.5h-336v623h-147zM385 141h147q350 0 513 149.5t163 395.5q0 250 -157.5 394.5t-448.5 144.5h-217v-461h352v-141h-352v-482z" />
<glyph unicode="&#xd1;" horiz-adv-x="1529" d="M201 0v1366h168l796 -1114v1114h164v-1366h-168l-796 1098v-1098h-164zM401 1501v12q0 29 6.5 60t24 75t63.5 71.5t113 27.5q70 0 123 -34t95 -67.5t83 -33.5q90 0 90 119v16h127v-14q0 -29 -6 -61t-24.5 -77t-65.5 -73.5t-116.5 -28.5t-122 34t-92.5 67.5t-81 33.5 q-90 0 -90 -115v-12h-127z" />
<glyph unicode="&#xd2;" horiz-adv-x="1628" d="M102 680q0 184 82 344t250 263.5t389 103.5q313 0 508 -196t195 -486q0 -299 -203 -516.5t-518 -217.5q-307 0 -505 207t-198 498zM283 692q0 -221 144 -396t384 -175q242 0 388.5 173t146.5 398q0 223 -144.5 388t-388.5 165q-242 0 -386 -166t-144 -387zM539 1616 l63 147l395 -194l-39 -99z" />
<glyph unicode="&#xd3;" horiz-adv-x="1628" d="M102 680q0 184 82 344t250 263.5t389 103.5q313 0 508 -196t195 -486q0 -299 -203 -516.5t-518 -217.5q-307 0 -505 207t-198 498zM283 692q0 -221 144 -396t384 -175q242 0 388.5 173t146.5 398q0 223 -144.5 388t-388.5 165q-242 0 -386 -166t-144 -387zM668 1470 l-39 99l395 194l63 -147z" />
<glyph unicode="&#xd4;" horiz-adv-x="1628" d="M102 680q0 184 82 344t250 263.5t389 103.5q313 0 508 -196t195 -486q0 -299 -203 -516.5t-518 -217.5q-307 0 -505 207t-198 498zM283 692q0 -221 144 -396t384 -175q242 0 388.5 173t146.5 398q0 223 -144.5 388t-388.5 165q-242 0 -386 -166t-144 -387zM578 1470 l-93 78l258 236h142l256 -236l-92 -78l-234 203z" />
<glyph unicode="&#xd5;" horiz-adv-x="1628" d="M102 680q0 184 82 344t250 263.5t389 103.5q313 0 508 -196t195 -486q0 -299 -203 -516.5t-518 -217.5q-307 0 -505 207t-198 498zM283 692q0 -221 144 -396t384 -175q242 0 388.5 173t146.5 398q0 223 -144.5 388t-388.5 165q-242 0 -386 -166t-144 -387zM451 1501v12 q0 29 6 60t23.5 75t63.5 71.5t113 27.5q70 0 123.5 -34t95.5 -67.5t82 -33.5q90 0 91 119v16h127v-14q0 -29 -6.5 -61t-25 -77t-65.5 -73.5t-116.5 -28.5t-122 34t-92 67.5t-80.5 33.5q-90 0 -90 -115v-12h-127z" />
<glyph unicode="&#xd6;" horiz-adv-x="1628" d="M102 680q0 184 82 344t250 263.5t389 103.5q313 0 508 -196t195 -486q0 -299 -203 -516.5t-518 -217.5q-307 0 -505 207t-198 498zM283 692q0 -221 144 -396t384 -175q242 0 388.5 173t146.5 398q0 223 -144.5 388t-388.5 165q-242 0 -386 -166t-144 -387zM1049 1520 q-41 0 -73 30.5t-32 73.5t32 74t73 31q43 0 74.5 -31t31.5 -74t-31.5 -73.5t-74.5 -30.5zM580 1520q-43 0 -75 30.5t-32 73.5t32 74t75 31q41 0 72.5 -31t31.5 -74t-31.5 -73.5t-72.5 -30.5z" />
<glyph unicode="&#xd7;" d="M82 883l90 94l360 -371l361 371l90 -94l-360 -371l360 -369l-92 -94l-359 369l-358 -369l-92 94l358 369z" />
<glyph unicode="&#xd8;" horiz-adv-x="1628" d="M102 680q0 184 82 344t250 263.5t389 103.5q215 0 381 -99l103 135h135l-150 -196q233 -199 234 -522q0 -299 -203 -516.5t-518 -217.5q-219 0 -385 109l-111 -145h-137l160 211q-230 206 -230 530zM1346 692q0 240 -158 402l-672 -883q131 -90 295 -90q242 0 388.5 173 t146.5 398zM283 692q0 -238 153 -407l668 878q-125 82 -291 82q-242 0 -386 -167t-144 -386z" />
<glyph unicode="&#xd9;" horiz-adv-x="1472" d="M182 492v874h168v-842q0 -205 105.5 -304t281.5 -99q174 0 279.5 98t105.5 293v854h168v-846q0 -258 -157.5 -401.5t-397.5 -143.5q-248 0 -400.5 126.5t-152.5 390.5zM461 1616l63 147l396 -194l-39 -99z" />
<glyph unicode="&#xda;" horiz-adv-x="1472" d="M182 492v874h168v-842q0 -205 105.5 -304t281.5 -99q174 0 279.5 98t105.5 293v854h168v-846q0 -258 -157.5 -401.5t-397.5 -143.5q-248 0 -400.5 126.5t-152.5 390.5zM590 1470l-39 99l395 194l64 -147z" />
<glyph unicode="&#xdb;" horiz-adv-x="1472" d="M182 492v874h168v-842q0 -205 105.5 -304t281.5 -99q174 0 279.5 98t105.5 293v854h168v-846q0 -258 -157.5 -401.5t-397.5 -143.5q-248 0 -400.5 126.5t-152.5 390.5zM500 1470l-92 78l258 236h141l256 -236l-92 -78l-234 203z" />
<glyph unicode="&#xdc;" horiz-adv-x="1472" d="M182 492v874h168v-842q0 -205 105.5 -304t281.5 -99q174 0 279.5 98t105.5 293v854h168v-846q0 -258 -157.5 -401.5t-397.5 -143.5q-248 0 -400.5 126.5t-152.5 390.5zM971 1520q-41 0 -73 30.5t-32 73.5t32 74t73 31q43 0 74.5 -31t31.5 -74t-31.5 -73.5t-74.5 -30.5z M502 1520q-43 0 -75 30.5t-32 73.5t32 74t75 31q41 0 72.5 -31t31.5 -74t-31.5 -73.5t-72.5 -30.5z" />
<glyph unicode="&#xdd;" horiz-adv-x="1177" d="M506 0v594l-490 772h199l377 -608l381 608h188l-487 -770v-596h-168zM455 1470l-39 99l395 194l63 -147z" />
<glyph unicode="&#xde;" horiz-adv-x="1148" d="M201 0v1366h168v-311h258q242 0 349 -101.5t107 -261.5q0 -188 -121.5 -292.5t-334.5 -104.5h-258v-295h-168zM369 436h227q307 0 307 242q0 236 -307 235h-227v-477z" />
<glyph unicode="&#xdf;" horiz-adv-x="1157" d="M57 793v84l146 55v78q0 219 102.5 339.5t292.5 120.5q164 0 255 -85t91 -199q0 -76 -49 -150l-98 -142q-49 -69 -49 -134q0 -57 35.5 -107.5t86.5 -90.5l102 -83q50 -43 86 -103.5t36 -133.5q0 -123 -91.5 -195t-242.5 -72q-78 0 -144.5 18.5t-95.5 39.5l-28 18l34 142 q102 -84 238 -84q78 0 120 33.5t42 90.5q0 51 -35 97.5t-86 85.5l-102 81q-50 42 -84.5 103.5t-34.5 134.5q0 68 29.5 131.5t66.5 103.5t66.5 94t29.5 107q0 76 -55 118t-133 42q-100 0 -163 -76.5t-63 -236.5v-1018h-159v793h-146z" />
<glyph unicode="&#xe0;" horiz-adv-x="960" d="M74 207q0 141 143 230t410 124v35q0 45 -1 65.5t-8.5 54.5t-22.5 49t-45 28.5t-75 13.5q-150 -2 -289 -102l-49 129q16 12 49 30.5t132.5 50t201.5 31.5q147 0 206.5 -67.5t59.5 -225.5v-415q0 -104 88 -121l15 -2l-53 -129q-164 18 -199 149q-10 -16 -30.5 -37.5 t-57.5 -52.5t-94.5 -50.5t-122.5 -19.5q-117 0 -187.5 65t-70.5 167zM365 115q125 0 262 159v170q-199 -33 -291 -86t-92 -141q0 -102 121 -102zM457 1036l-287 396h174l207 -340z" />
<glyph unicode="&#xe1;" horiz-adv-x="960" d="M74 207q0 141 143 230t410 124v35q0 45 -1 65.5t-8.5 54.5t-22.5 49t-45 28.5t-75 13.5q-150 -2 -289 -102l-49 129q16 12 49 30.5t132.5 50t201.5 31.5q147 0 206.5 -67.5t59.5 -225.5v-415q0 -104 88 -121l15 -2l-53 -129q-164 18 -199 149q-10 -16 -30.5 -37.5 t-57.5 -52.5t-94.5 -50.5t-122.5 -19.5q-117 0 -187.5 65t-70.5 167zM365 115q125 0 262 159v170q-199 -33 -291 -86t-92 -141q0 -102 121 -102zM469 1036l-94 56l207 340h174z" />
<glyph unicode="&#xe2;" horiz-adv-x="960" d="M74 207q0 141 143 230t410 124v35q0 45 -1 65.5t-8.5 54.5t-22.5 49t-45 28.5t-75 13.5q-150 -2 -289 -102l-49 129q16 12 49 30.5t132.5 50t201.5 31.5q147 0 206.5 -67.5t59.5 -225.5v-415q0 -104 88 -121l15 -2l-53 -129q-164 18 -199 149q-10 -16 -30.5 -37.5 t-57.5 -52.5t-94.5 -50.5t-122.5 -19.5q-117 0 -187.5 65t-70.5 167zM365 115q125 0 262 159v170q-199 -33 -291 -86t-92 -141q0 -102 121 -102zM279 1034l-101 51l230 347h110l230 -347l-101 -51l-184 256z" />
<glyph unicode="&#xe3;" horiz-adv-x="960" d="M74 207q0 141 143 230t410 124v35q0 45 -1 65.5t-8.5 54.5t-22.5 49t-45 28.5t-75 13.5q-150 -2 -289 -102l-49 129q16 12 49 30.5t132.5 50t201.5 31.5q147 0 206.5 -67.5t59.5 -225.5v-415q0 -104 88 -121l15 -2l-53 -129q-164 18 -199 149q-10 -16 -30.5 -37.5 t-57.5 -52.5t-94.5 -50.5t-122.5 -19.5q-117 0 -187.5 65t-70.5 167zM365 115q125 0 262 159v170q-199 -33 -291 -86t-92 -141q0 -102 121 -102zM162 1130v11q0 20 2 42.5t12 60.5t27.5 65.5t51.5 49t81 21.5q49 0 90 -24.5t61.5 -54t46 -54t50.5 -24.5q61 0 69 131v14h111 v-10q0 -29 -5 -60.5t-20.5 -79t-55.5 -78t-97 -30.5q-49 0 -89 24.5t-60.5 54.5t-46 54.5t-50.5 24.5q-68 0 -68 -129v-9h-110z" />
<glyph unicode="&#xe4;" horiz-adv-x="960" d="M74 207q0 141 143 230t410 124v35q0 45 -1 65.5t-8.5 54.5t-22.5 49t-45 28.5t-75 13.5q-150 -2 -289 -102l-49 129q16 12 49 30.5t132.5 50t201.5 31.5q147 0 206.5 -67.5t59.5 -225.5v-415q0 -104 88 -121l15 -2l-53 -129q-164 18 -199 149q-10 -16 -30.5 -37.5 t-57.5 -52.5t-94.5 -50.5t-122.5 -19.5q-117 0 -187.5 65t-70.5 167zM365 115q125 0 262 159v170q-199 -33 -291 -86t-92 -141q0 -102 121 -102zM645 1161q-41 0 -72.5 31t-31.5 74t31.5 73.5t72.5 30.5q43 0 75 -30.5t32 -73.5t-32 -74t-75 -31zM279 1161q-43 0 -75 31 t-32 74t32 73.5t75 30.5q41 0 72.5 -30.5t31.5 -73.5t-31.5 -74t-72.5 -31z" />
<glyph unicode="&#xe5;" horiz-adv-x="960" d="M74 207q0 141 143 230t410 124v35q0 45 -1 65.5t-8.5 54.5t-22.5 49t-45 28.5t-75 13.5q-150 -2 -289 -102l-49 129q16 12 49 30.5t132.5 50t201.5 31.5q147 0 206.5 -67.5t59.5 -225.5v-415q0 -104 88 -121l15 -2l-53 -129q-164 18 -199 149q-10 -16 -30.5 -37.5 t-57.5 -52.5t-94.5 -50.5t-122.5 -19.5q-117 0 -187.5 65t-70.5 167zM365 115q125 0 262 159v170q-199 -33 -291 -86t-92 -141q0 -102 121 -102zM463 1098q-92 0 -140.5 51t-48.5 120.5t48.5 118t140.5 48.5t140 -48.5t48 -118t-48 -120.5t-140 -51zM463 1178 q47 0 71.5 26.5t24.5 63.5t-23.5 62.5t-72.5 25.5q-94 0 -94 -88q0 -37 23.5 -63.5t70.5 -26.5z" />
<glyph unicode="&#xe6;" horiz-adv-x="1538" d="M186 705l-49 129q18 12 50 30.5t131.5 50t197.5 31.5q201 0 250 -139q123 139 311 139q162 0 264.5 -108.5t102.5 -296.5l-98 -29l-545 -72q10 -143 91 -234t214 -91q72 0 143.5 28.5t106.5 57.5l35 26l57 -116q-14 -14 -43 -37t-123 -61t-195 -38q-266 0 -380 222 q-41 -88 -130.5 -155t-216.5 -67q-125 0 -205.5 65.5t-80.5 166.5q0 131 147.5 219t425.5 121v49q0 57 -3 85t-16.5 62.5t-46 49t-87.5 14.5q-72 0 -149 -25.5t-118 -52.5zM381 115q117 0 187.5 83t70.5 230q-395 -57 -395 -211q0 -102 137 -102zM1061 813 q-102 0 -169 -68.5t-85 -181.5l461 60q0 8 -3 20t-15.5 45t-33 58.5t-61.5 46t-94 20.5z" />
<glyph unicode="&#xe7;" horiz-adv-x="933" d="M391 -152q0 25 37 109l12 29q-160 33 -255 160.5t-95 304.5q0 201 128 348t343 147q88 0 163 -24.5t107 -49.5l31 -26l-71 -125q-10 10 -31 24.5t-83.5 38t-125.5 23.5q-133 0 -213 -100.5t-80 -247.5q0 -145 81 -244.5t218 -99.5q143 4 250 98l55 -119 q-12 -12 -35.5 -32.5t-106.5 -53.5t-175 -33h-6l-7 -12q-23 -49 -22 -67q0 -23 27.5 -40.5t59.5 -30.5t59.5 -45t27.5 -77q0 -76 -65.5 -133t-161.5 -57q-49 0 -97.5 16t-70.5 33l-23 14l43 100q66 -57 144 -57q45 0 74.5 19.5t29.5 48.5q0 23 -25.5 41t-57.5 30.5 t-57.5 35.5t-25.5 54z" />
<glyph unicode="&#xe8;" horiz-adv-x="997" d="M92 440q0 219 124 362.5t319 143.5q164 0 266 -109.5t102 -301.5l-98 -29l-543 -72q10 -145 91 -232t214 -87q70 0 142.5 28.5t109.5 57.5l37 30l47 -122q-14 -14 -43 -37t-121 -60t-190 -37q-217 0 -337 135t-120 330zM524 813q-106 0 -173.5 -71.5t-86.5 -184.5l463 59 q0 8 -3 21.5t-15.5 47.5t-33 59.5t-60.5 47t-91 21.5zM508 1036l-287 396h174l207 -340z" />
<glyph unicode="&#xe9;" horiz-adv-x="997" d="M92 440q0 219 124 362.5t319 143.5q164 0 266 -109.5t102 -301.5l-98 -29l-543 -72q10 -145 91 -232t214 -87q70 0 142.5 28.5t109.5 57.5l37 30l47 -122q-14 -14 -43 -37t-121 -60t-190 -37q-217 0 -337 135t-120 330zM524 813q-106 0 -173.5 -71.5t-86.5 -184.5l463 59 q0 8 -3 21.5t-15.5 47.5t-33 59.5t-60.5 47t-91 21.5zM520 1036l-94 56l207 340h174z" />
<glyph unicode="&#xea;" horiz-adv-x="997" d="M92 440q0 219 124 362.5t319 143.5q164 0 266 -109.5t102 -301.5l-98 -29l-543 -72q10 -145 91 -232t214 -87q70 0 142.5 28.5t109.5 57.5l37 30l47 -122q-14 -14 -43 -37t-121 -60t-190 -37q-217 0 -337 135t-120 330zM524 813q-106 0 -173.5 -71.5t-86.5 -184.5l463 59 q0 8 -3 21.5t-15.5 47.5t-33 59.5t-60.5 47t-91 21.5zM330 1034l-101 51l230 347h110l230 -347l-101 -51l-184 256z" />
<glyph unicode="&#xeb;" horiz-adv-x="997" d="M92 440q0 219 124 362.5t319 143.5q164 0 266 -109.5t102 -301.5l-98 -29l-543 -72q10 -145 91 -232t214 -87q70 0 142.5 28.5t109.5 57.5l37 30l47 -122q-14 -14 -43 -37t-121 -60t-190 -37q-217 0 -337 135t-120 330zM524 813q-106 0 -173.5 -71.5t-86.5 -184.5l463 59 q0 8 -3 21.5t-15.5 47.5t-33 59.5t-60.5 47t-91 21.5zM696 1161q-41 0 -72.5 31t-31.5 74t31.5 73.5t72.5 30.5q43 0 75 -30.5t32 -73.5t-32 -74t-75 -31zM330 1161q-43 0 -75 31t-32 74t32 73.5t75 30.5q41 0 72.5 -30.5t31.5 -73.5t-31.5 -74t-72.5 -31z" />
<glyph unicode="&#xec;" horiz-adv-x="471" d="M156 0v922h159v-922h-159zM229 1036l-286 396h174l207 -340z" />
<glyph unicode="&#xed;" horiz-adv-x="471" d="M156 0v922h159v-922h-159zM242 1036l-95 56l207 340h174z" />
<glyph unicode="&#xee;" horiz-adv-x="471" d="M156 0v922h159v-922h-159zM51 1034l-100 51l229 347h111l229 -347l-100 -51l-184 256z" />
<glyph unicode="&#xef;" horiz-adv-x="471" d="M156 0v922h159v-922h-159zM418 1161q-41 0 -73 31t-32 74t32 73.5t73 30.5q43 0 74.5 -30.5t31.5 -73.5t-31.5 -74t-74.5 -31zM51 1161q-43 0 -74.5 31t-31.5 74t31.5 73.5t74.5 30.5q41 0 73 -30.5t32 -73.5t-32 -74t-73 -31z" />
<glyph unicode="&#xf0;" horiz-adv-x="1103" d="M295 1034l-59 103l215 131q-131 80 -281 123l35 125q215 -43 385 -164l282 172l58 -103l-244 -147q145 -135 225 -317.5t80 -383.5q0 -270 -125 -434t-344 -164q-197 0 -314.5 142.5t-117.5 331.5q0 199 128 348t319 149q166 0 247 -88q-74 197 -231 334zM258 465 q0 -135 71.5 -242.5t203 -107.5t214 110.5t82.5 337.5q0 111 -62 177.5t-189 66.5q-141 0 -230.5 -96t-89.5 -246z" />
<glyph unicode="&#xf1;" horiz-adv-x="1079" d="M152 0v907l159 29v-180q184 190 381 190q111 0 176.5 -67.5t65.5 -208.5v-670h-160v625q0 180 -125 180q-135 0 -338 -197v-608h-159zM250 1130v11q0 20 2 42.5t12 60.5t27.5 65.5t51.5 49t81 21.5q49 0 90 -24.5t61.5 -54t46 -54t50.5 -24.5q61 0 69 131v14h111v-10 q0 -29 -5 -60.5t-20.5 -79t-55.5 -78t-97 -30.5q-49 0 -89 24.5t-60.5 54.5t-46 54.5t-50.5 24.5q-68 0 -68 -129v-9h-110z" />
<glyph unicode="&#xf2;" horiz-adv-x="1091" d="M90 457q0 121 49 229.5t156.5 184t253.5 75.5q205 0 328.5 -139t123.5 -328q0 -119 -48 -230.5t-157.5 -192.5t-254.5 -81q-205 0 -328 143.5t-123 338.5zM258 475.5q0 -149.5 74 -255t215 -105.5q129 0 208 94t79 244q0 147 -72 250.5t-217 103.5q-131 0 -209 -91 t-78 -240.5zM539 1036l-287 396h174l207 -340z" />
<glyph unicode="&#xf3;" horiz-adv-x="1091" d="M90 457q0 121 49 229.5t156.5 184t253.5 75.5q205 0 328.5 -139t123.5 -328q0 -119 -48 -230.5t-157.5 -192.5t-254.5 -81q-205 0 -328 143.5t-123 338.5zM258 475.5q0 -149.5 74 -255t215 -105.5q129 0 208 94t79 244q0 147 -72 250.5t-217 103.5q-131 0 -209 -91 t-78 -240.5zM551 1036l-94 56l207 340h174z" />
<glyph unicode="&#xf4;" horiz-adv-x="1091" d="M90 457q0 121 49 229.5t156.5 184t253.5 75.5q205 0 328.5 -139t123.5 -328q0 -119 -48 -230.5t-157.5 -192.5t-254.5 -81q-205 0 -328 143.5t-123 338.5zM258 475.5q0 -149.5 74 -255t215 -105.5q129 0 208 94t79 244q0 147 -72 250.5t-217 103.5q-131 0 -209 -91 t-78 -240.5zM360 1034l-100 51l229 347h111l229 -347l-100 -51l-184 256z" />
<glyph unicode="&#xf5;" horiz-adv-x="1091" d="M90 457q0 121 49 229.5t156.5 184t253.5 75.5q205 0 328.5 -139t123.5 -328q0 -119 -48 -230.5t-157.5 -192.5t-254.5 -81q-205 0 -328 143.5t-123 338.5zM258 475.5q0 -149.5 74 -255t215 -105.5q129 0 208 94t79 244q0 147 -72 250.5t-217 103.5q-131 0 -209 -91 t-78 -240.5zM244 1130v11q0 20 2 42.5t12 60.5t27.5 65.5t51.5 49t81 21.5q49 0 90 -24.5t61.5 -54t46 -54t50.5 -24.5q61 0 69 131v14h111v-10q0 -29 -5 -60.5t-20.5 -79t-55.5 -78t-97 -30.5q-49 0 -89 24.5t-60.5 54.5t-46.5 54.5t-50 24.5q-68 0 -68 -129v-9h-110z" />
<glyph unicode="&#xf6;" horiz-adv-x="1091" d="M90 457q0 121 49 229.5t156.5 184t253.5 75.5q205 0 328.5 -139t123.5 -328q0 -119 -48 -230.5t-157.5 -192.5t-254.5 -81q-205 0 -328 143.5t-123 338.5zM258 475.5q0 -149.5 74 -255t215 -105.5q129 0 208 94t79 244q0 147 -72 250.5t-217 103.5q-131 0 -209 -91 t-78 -240.5zM727 1161q-41 0 -72.5 31t-31.5 74t31.5 73.5t72.5 30.5q43 0 75 -30.5t32 -73.5t-32 -74t-75 -31zM360 1161q-43 0 -74.5 31t-31.5 74t31.5 73.5t74.5 30.5q41 0 73 -30.5t32 -73.5t-32 -74t-73 -31z" />
<glyph unicode="&#xf7;" d="M532.5 782q-51.5 0 -87 36t-35.5 87t35.5 87t87 36t87 -36t35.5 -87t-35.5 -87t-87 -36zM74 446v134h917v-134h-917zM410 121q0 51 35.5 87t87 36t87 -36t35.5 -87t-35.5 -87t-87 -36t-87 36t-35.5 87z" />
<glyph unicode="&#xf8;" horiz-adv-x="1091" d="M90 457q0 121 49 229.5t156.5 184t253.5 75.5q137 0 244 -69l79 106h127l-127 -172q129 -139 129 -332q0 -119 -48 -230.5t-157.5 -192.5t-254.5 -81q-137 0 -240 68l-78 -104h-129l127 170q-131 141 -131 348zM834 453q0 133 -58 229l-387 -520q70 -47 158 -47 q129 0 208 94t79 244zM258 475q0 -141 61 -235l386 518q-66 49 -160 49q-131 0 -209 -91t-78 -241z" />
<glyph unicode="&#xf9;" horiz-adv-x="1067" d="M145 252v670h160v-625q0 -180 131 -180q139 0 312 172v633h159v-637q0 -49 10.5 -121t20.5 -119l10 -45l-157 -14q-23 102 -31 168q-166 -178 -365 -179q-250 1 -250 277zM522 1036l-286 396h174l206 -340z" />
<glyph unicode="&#xfa;" horiz-adv-x="1067" d="M145 252v670h160v-625q0 -180 131 -180q139 0 312 172v633h159v-637q0 -49 10.5 -121t20.5 -119l10 -45l-157 -14q-23 102 -31 168q-166 -178 -365 -179q-250 1 -250 277zM535 1036l-95 56l207 340h174z" />
<glyph unicode="&#xfb;" horiz-adv-x="1067" d="M145 252v670h160v-625q0 -180 131 -180q139 0 312 172v633h159v-637q0 -49 10.5 -121t20.5 -119l10 -45l-157 -14q-23 102 -31 168q-166 -178 -365 -179q-250 1 -250 277zM344 1034l-100 51l229 347h111l229 -347l-100 -51l-185 256z" />
<glyph unicode="&#xfc;" horiz-adv-x="1067" d="M145 252v670h160v-625q0 -180 131 -180q139 0 312 172v633h159v-637q0 -49 10.5 -121t20.5 -119l10 -45l-157 -14q-23 102 -31 168q-166 -178 -365 -179q-250 1 -250 277zM711 1161q-41 0 -73 31t-32 74t32 73.5t73 30.5q43 0 74.5 -30.5t31.5 -73.5t-31.5 -74t-74.5 -31 zM344 1161q-43 0 -74.5 31t-31.5 74t31.5 73.5t74.5 30.5q41 0 73 -30.5t32 -73.5t-32 -74t-73 -31z" />
<glyph unicode="&#xfd;" horiz-adv-x="935" d="M43 -352q180 37 289 282l59 138l-358 854h174l268 -652l260 652h168l-411 -992q-74 -178 -167.5 -288.5t-230.5 -126.5zM483 1036l-94 56l207 340h174z" />
<glyph unicode="&#xfe;" horiz-adv-x="1077" d="M156 -475v1909l159 28v-663q88 147 279 147q178 0 284.5 -131t106.5 -330q0 -213 -129 -361.5t-344 -148.5q-131 0 -197 56v-477zM315 231q0 -117 172 -116q154 0 241 96t87 264q0 152 -67.5 240t-174.5 88q-150 0 -258 -158v-414z" />
<glyph unicode="&#xff;" horiz-adv-x="935" d="M43 -352q180 37 289 282l59 138l-358 854h174l268 -652l260 652h168l-411 -992q-74 -178 -167.5 -288.5t-230.5 -126.5zM659 1161q-41 0 -72.5 31t-31.5 74t31.5 73.5t72.5 30.5q43 0 75 -30.5t32 -73.5t-32 -74t-75 -31zM293 1161q-43 0 -75 31t-32 74t32 73.5t75 30.5 q41 0 72.5 -30.5t31.5 -73.5t-31.5 -74t-72.5 -31z" />
<glyph unicode="&#x152;" horiz-adv-x="2009" d="M102 680q0 139 47.5 265t137.5 226.5t235.5 160t325.5 59.5q127 0 256 -25h801v-141h-637v-457h504v-141h-504v-486h635v-141h-803q-141 -25 -269 -25q-334 0 -531.5 204t-197.5 501zM283 692q0 -100 31.5 -197.5t96 -183.5t176 -138t255 -52t258.5 20v1073 q-117 31 -264 31q-264 0 -408.5 -164t-144.5 -389z" />
<glyph unicode="&#x153;" horiz-adv-x="1738" d="M90 457q0 121 49 229.5t156.5 184t253.5 75.5q244 0 375 -201q119 201 352 201q164 0 266.5 -109.5t102.5 -301.5l-99 -29l-549 -72q10 -145 92 -232t220 -87q70 0 140.5 28.5t106.5 57.5l35 26l58 -116q-16 -14 -45 -37t-122 -61t-192 -38q-254 0 -377 203 q-131 -203 -372 -203q-205 0 -328 143.5t-123 338.5zM258 475.5q0 -149.5 74 -255t215 -105.5q129 0 208 94t79 244q0 147 -72 250.5t-217 103.5q-131 0 -209 -91t-78 -240.5zM1266 813q-111 0 -179.5 -71.5t-87.5 -186.5l469 61q0 8 -3 21.5t-15 47.5t-32.5 59.5t-60.5 47 t-91 21.5z" />
<glyph unicode="&#x178;" horiz-adv-x="1177" d="M506 0v594l-490 772h199l377 -608l381 608h188l-487 -770v-596h-168zM836 1520q-41 0 -73 30.5t-32 73.5t32 74t73 31q43 0 74.5 -31t31.5 -74t-31.5 -73.5t-74.5 -30.5zM367 1520q-43 0 -75 30.5t-32 73.5t32 74t75 31q41 0 72.5 -31t31.5 -74t-31.5 -73.5t-72.5 -30.5z " />
<glyph unicode="&#x2c6;" horiz-adv-x="1032" d="M332 1034l-101 51l230 347h110l230 -347l-101 -51l-184 256z" />
<glyph unicode="&#x2dc;" horiz-adv-x="1032" d="M215 1130v11q0 20 2 42.5t12.5 60.5t27.5 65.5t51 49t81 21.5q49 0 90 -24.5t61.5 -54t46 -54t50.5 -24.5q61 0 70 131v14h110v-10q0 -29 -5 -60.5t-20.5 -79t-55.5 -78t-97 -30.5q-49 0 -89 24.5t-60.5 54.5t-46 54.5t-50.5 24.5q-68 0 -67 -129v-9h-111z" />
<glyph unicode="&#x2000;" horiz-adv-x="890" />
<glyph unicode="&#x2001;" horiz-adv-x="1783" />
<glyph unicode="&#x2002;" horiz-adv-x="890" />
<glyph unicode="&#x2003;" horiz-adv-x="1783" />
<glyph unicode="&#x2004;" horiz-adv-x="593" />
<glyph unicode="&#x2005;" horiz-adv-x="444" />
<glyph unicode="&#x2006;" horiz-adv-x="296" />
<glyph unicode="&#x2007;" horiz-adv-x="296" />
<glyph unicode="&#x2008;" horiz-adv-x="221" />
<glyph unicode="&#x2009;" horiz-adv-x="356" />
<glyph unicode="&#x200a;" horiz-adv-x="98" />
<glyph unicode="&#x2010;" horiz-adv-x="692" d="M115 438v148h463v-148h-463z" />
<glyph unicode="&#x2011;" horiz-adv-x="692" d="M115 438v148h463v-148h-463z" />
<glyph unicode="&#x2012;" horiz-adv-x="692" d="M115 438v148h463v-148h-463z" />
<glyph unicode="&#x2013;" horiz-adv-x="1069" d="M115 453v133h839v-133h-839z" />
<glyph unicode="&#x2014;" horiz-adv-x="1867" d="M115 453v133h1638v-133h-1638z" />
<glyph unicode="&#x2018;" horiz-adv-x="432" d="M203 956q-102 96 -103 234q0 186 181 323l71 -73q-100 -80 -100 -180q0 -102 106 -213z" />
<glyph unicode="&#x2019;" horiz-adv-x="423" d="M156 956l-72 74q100 80 100 180q0 102 -106 213l155 90q102 -96 103 -233q0 -187 -180 -324z" />
<glyph unicode="&#x201a;" horiz-adv-x="487" d="M100 154l168 90q109 -102 109 -234q0 -88 -50.5 -173t-136.5 -150l-71 73q106 84 106 181q0 82 -125 213z" />
<glyph unicode="&#x201c;" horiz-adv-x="763" d="M535 956q-102 96 -103 234q0 186 180 323l72 -73q-100 -80 -100 -180q0 -102 106 -213zM203 956q-102 96 -103 234q0 186 181 323l71 -73q-100 -80 -100 -180q0 -102 106 -213z" />
<glyph unicode="&#x201d;" horiz-adv-x="755" d="M487 956l-71 74q100 80 100 180q0 102 -106 213l155 90q102 -96 103 -233q-1 -187 -181 -324zM156 956l-72 74q100 80 100 180q0 102 -106 213l155 90q102 -96 103 -233q0 -187 -180 -324z" />
<glyph unicode="&#x201e;" horiz-adv-x="819" d="M432 154l168 90q109 -102 109 -234q0 -88 -50.5 -173t-136.5 -150l-71 73q106 84 106 181q0 82 -125 213zM100 154l168 90q109 -102 109 -234q0 -88 -50.5 -173t-136.5 -150l-71 73q106 84 106 181q0 82 -125 213z" />
<glyph unicode="&#x2022;" horiz-adv-x="778" d="M389 242q-119 0 -201 82t-82 200.5t82 200.5t201 82t201 -82t82 -200.5t-82 -200.5t-201 -82z" />
<glyph unicode="&#x2026;" horiz-adv-x="1593" d="M1227 98.5q0 51.5 35.5 87t87 35.5t87.5 -35.5t36 -87t-36 -87.5t-87.5 -36t-87 36t-35.5 87.5zM674 98.5q0 51.5 35.5 87t87 35.5t87.5 -35.5t36 -87t-36 -87.5t-87.5 -36t-87 36t-35.5 87.5zM121 98.5q0 51.5 36 87t87 35.5t87 -35.5t36 -87t-36 -87.5t-87 -36t-87 36 t-36 87.5z" />
<glyph unicode="&#x202f;" horiz-adv-x="356" />
<glyph unicode="&#x2039;" horiz-adv-x="655" d="M449 82l-168 182l-111 121l-60 66l-38 38q-10 10 -23 21v8q35 27 285 303l115 125l110 -31l-309 -401l309 -401z" />
<glyph unicode="&#x203a;" horiz-adv-x="657" d="M98 113l310 401l-310 401l111 31q362 -397 389 -420q4 -2 10 -8v-8q-12 -10 -22 -21l-38 -38l-61 -66l-110 -121l-168 -182z" />
<glyph unicode="&#x205f;" horiz-adv-x="444" />
<glyph unicode="&#x20ac;" horiz-adv-x="1142" d="M86 375v102h109q-4 27 -5 82q0 25 5 78h-105v102h121q45 188 179 303t335 115q180 -2 313 -80l-43 -145q-119 86 -278 86q-137 0 -221 -77t-117 -202h561l-31 -102h-549q-2 -23 -2 -66q0 -47 7 -94h499l-30 -102h-445q39 -119 127 -189.5t211 -70.5q66 0 131.5 18.5 t97.5 34.5l33 18l49 -125q-14 -10 -39.5 -24t-110.5 -38t-173 -24q-190 0 -322.5 107.5t-179.5 292.5h-127z" />
<glyph unicode="&#x2122;" horiz-adv-x="1359" d="M629 821l20 545h156l127 -371l129 371h151l21 -545h-103l-16 422l-149 -422h-70l-150 424l-12 -424h-104zM254 821v457h-178v88h463v-88h-179v-457h-106z" />
<glyph unicode="&#xe000;" horiz-adv-x="920" d="M0 920h920v-920h-920v920z" />
<glyph unicode="&#xfb01;" horiz-adv-x="1075" d="M760 0v803h-398v-803h-159v793h-146v84l146 55v78q0 225 108.5 353t292.5 128q162 0 279 -78l-74 -127q-100 66 -209 66q-102 0 -170 -82t-68 -252v-96h558v-922h-160z" />
<glyph unicode="&#xfb02;" horiz-adv-x="1105" d="M791 0v1296q-98 55 -191 56q-102 0 -170 -82t-68 -252v-96h261v-129h-261v-793h-159v793h-146v84l146 55v78q0 225 108.5 353t292.5 128q115 0 227 -51l119 22v-1462h-159z" />
<glyph unicode="&#xfb03;" horiz-adv-x="1669" d="M1354 0v803h-398v-803h-159v803h-435v-803h-159v793h-146v84l146 55v47q0 217 111.5 339t299.5 122q141 0 275 -82q104 133 289 133q68 0 132 -19.5t95 -37.5l31 -21l-74 -127q-92 66 -188 66q-94 0 -156 -76t-62 -238v-116h557v-922h-159zM797 1030q0 109 28 199 q-115 72 -215 71q-109 0 -178.5 -75.5t-69.5 -237.5v-65h435v108z" />
<glyph unicode="&#xfb04;" horiz-adv-x="1699" d="M1384 0v1296q-98 55 -190 56q-102 0 -170 -82t-68 -252v-96h261v-129h-261v-793h-159v803h-435v-803h-159v793h-146v84l146 55v47q0 217 111.5 339t299.5 122q147 0 283 -88q109 139 301 139q115 0 227 -51l119 22v-1462h-160zM797 1010q0 125 32 215q-119 76 -219 75 q-109 0 -178.5 -75.5t-69.5 -237.5v-65h435v88z" />
</font>
</defs>
</svg>
